The Lion King 2019 BDRip 1080p SeleZen

Torrent Details


The Lion King 2019 BDRip 1080p<span style=color:#fc9c6d> seleZen</span>

NAME
The Lion King 2019 BDRip 1080p seleZen.torrent
CATEGORY
Anime
INFOHASH
e8348bb62535b96003c4f1a227b0d6acc142de53
SIZE
15.6 GB in 1 file
ADDED
Uploaded on 11-10-2019 by our crawler pet called "Spidey".
SWARM
0 seeders & 0 peers
RATING
No votes yet.

Please login to vote for this torrent.


Description

Информация о фильме

Название: Король Лев

Оригинальное название: The Lion King

Год выхода: 2019

Жанр: Мультфильм, мюзикл, драма, приключения, семейный

Режиссер: Джон Фавро

В ролях: Джеймс Эрл Джонс, Дональд Гловер, Чиветел Эджиофор, Джон Оливер, Джон Кани, Элфри Вудард, Джейдон Маккрэри, Шахади Райт Джозеф, Пенни Джонсон, Кигэн-Майкл Ки







О фильме: Действие фильма разворачивается в африканской саванне и повествует о молодом льве по имени Симба, который потерял своего отца Муфасу из-за своего злобного дяди Шрама и был изгнан из прайда в дальние края пустыни. Годы спустя он возвращается, чтобы вернуть себе трон.



Страна: США

Студия: Walt Disney Pictures, Fairview Entertainment

Продолжительность: 01:58:15

Перевод: Дублированный | iTunes



Качество: BDRip 1080p

Видео: MPEG-4 AVC, 1920x1080, 17.9 Mbit/s, 23.976 fps

Аудио #01: 48 kHz, AC3, 5.1, 384 Kbps | iTunes | RUS |

Аудио #02: 48 kHz, AC3, 5.1, 640 Kbps | Оригинал | ENG |

Субтитры: Русские (Full, SDH), английские







MIGeneral

Unique ID : 318183781105623887718553160006028054894 (0xEF5FF7996F1C70D3C761897F4D19516E)

Complete name : D:Video111The.Lion.King.2019.BDRip.1080p.seleZen.mkv

Format : Matroska

Format version : Version 4

File size : 15.6 GiB

Duration : 1 h 58 min

Overall bit rate : 18.9 Mb/s

Movie name : The Lion King 2019 from селезень

Encoded date : UTC 2019-10-11 14:35:30

Writing application : mkvmerge v22.0.0 ('At The End Of The World') 64-bit

Writing library : libebml v1.3.5 + libmatroska v1.4.8



Video

ID : 1

Format : AVC

Format/Info : Advanced Video Codec

Format profile : [email protected]

Format settings : CABAC / 4 Ref Frames

Format settings, CABAC : Yes

Format settings, Reference : 4 frames

Codec ID : V_MPEG4/ISO/AVC

Duration : 1 h 58 min

Bit rate : 17.9 Mb/s

Width : 1 920 pixels

Height : 1 080 pixels

Display aspect ratio : 16:9

Frame rate mode : Constant

Frame rate : 23.976 (24000/1001) FPS

Color space : YUV

Chroma subsampling : 4:2:0

Bit depth : 8 bits

Scan type : Progressive

Bits/(Pixel*Frame) : 0.360

Stream size : 14.8 GiB (95%)

Title : MTeam

Writing library : x264 core 157 r2938 2b00a84 [email protected] Mod

Encoding settings : cabac=1 / ref=4 / deblock=1:-3:-3 / analyse=0x3:0x133 / me=umh / subme=10 / psy=1 / psy_rd=1.05:0.00 / mixed_ref=1 / me_range=32 / chroma_me=1 / trellis=2 / 8x8dct=1 / cqm=0 / deadzone=21,11 / fast_pskip=0 / chroma_qp_offset=-2 / threads=12 / lookahead_threads=2 / sliced_threads=0 / nr=0 / decimate=0 / interlaced=0 / bluray_compat=0 / constrained_intra=0 / bframes=8 / b_pyramid=2 / b_adapt=2 / b_bias=0 / direct=3 / weightb=1 / open_gop=0 / weightp=2 / keyint=250 / keyint_min=24 / scenecut=40 / intra_refresh=0 / rc_lookahead=250 / rc=crf / mbtree=0 / crf=16.1 / qcomp=0.60 / qpmin=0 / qpmax=69 / qpstep=4 / vbv_maxrate=62500 / vbv_bufsize=78125 / crf_max=0.0 / nal_hrd=none / filler=0 / ip_ratio=1.30 / pb_ratio=1.20 / aq=3:0.80

Language : English

Default : Yes

Forced : No

Color range : Limited

Color primaries : BT.709

Matrix coefficients : BT.709



Audio #1

ID : 2

Format : AC-3

Format/Info : Audio Coding 3

Commercial name : Dolby Digital

Codec ID : A_AC3

Duration : 1 h 58 min

Bit rate mode : Constant

Bit rate : 384 kb/s

Channel(s) : 6 channels

Channel layout : L R C LFE Ls Rs

Sampling rate : 48.0 kHz

Frame rate : 31.250 FPS (1536 SPF)

Bit depth : 16 bits

Compression mode : Lossy

Stream size : 325 MiB (2%)

Title : iTunes

Language : Russian

Service kind : Complete Main

Default : Yes

Forced : Yes



Audio #2

ID : 3

Format : AC-3

Format/Info : Audio Coding 3

Commercial name : Dolby Digital

Codec ID : A_AC3

Duration : 1 h 58 min

Bit rate mode : Constant

Bit rate : 640 kb/s

Channel(s) : 6 channels

Channel layout : L R C LFE Ls Rs

Sampling rate : 48.0 kHz

Frame rate : 31.250 FPS (1536 SPF)

Bit depth : 16 bits

Compression mode : Lossy

Stream size : 541 MiB (3%)

Title : Original

Language : English

Service kind : Complete Main

Default : No

Forced : No



Text #1

ID : 4

Format : UTF-8

Codec ID : S_TEXT/UTF8

Codec ID/Info : UTF-8 Plain Text

Duration : 1 h 55 min

Bit rate : 68 b/s

Count of elements : 1371

Stream size : 58.1 KiB (0%)

Title : Full

Language : Russian

Default : No

Forced : No



Text #2

ID : 5

Format : UTF-8

Codec ID : S_TEXT/UTF8

Codec ID/Info : UTF-8 Plain Text

Duration : 1 h 47 min

Bit rate : 89 b/s

Count of elements : 1642

Stream size : 70.4 KiB (0%)

Title : SDH

Language : Russian

Default : No

Forced : No



Text #3

ID : 6

Format : UTF-8

Codec ID : S_TEXT/UTF8

Codec ID/Info : UTF-8 Plain Text

Duration : 1 h 46 min

Bit rate : 50 b/s

Count of elements : 1369

Stream size : 39.1 KiB (0%)

Title : Full

Language : English

Default : No

Forced : No



Menu

00:00:00.000 : en:Chapter 01

00:04:50.499 : en:Chapter 02

00:10:51.067 : en:Chapter 03

00:17:47.692 : en:Chapter 04

00:23:53.015 : en:Chapter 05

00:30:00.132 : en:Chapter 06

00:33:05.066 : en:Chapter 07

00:37:09.310 : en:Chapter 08

00:43:42.912 : en:Chapter 09

00:50:47.336 : en:Chapter 10

00:55:02.716 : en:Chapter 11

00:59:48.460 : en:Chapter 12

01:06:27.233 : en:Chapter 13

01:14:32.093 : en:Chapter 14

01:18:26.410 : en:Chapter 15

01:23:07.900 : en:Chapter 16

01:28:04.654 : en:Chapter 17

01:33:10.877 : en:Chapter 18

01:37:13.745 : en:Chapter 19

01:44:39.190 : en:Chapter 20

01:47:47.336 : en:Chapter 21



Релиз от:



Discussion

Comments 0

Post Your Comment

Files in this torrent

FILENAMESIZE
The.Lion.King.2019.BDRip.1080p.seleZen.mkv15.6 GB

Alternative Torrents for 'Lion King'.

TORRENT NAME ADDED SIZE SEEDS PEERS HEALTH
5/28/2020 4 GB 3 2
5/22/2020 4.1 GB 3 4
5/24/2020 10 MB 2 0
5/24/2020 6 GB 1 4
5/14/2020 1.3 GB 0 0
5/7/2020 1 GB 0 0
4/22/2020 2.2 GB 0 0
4/19/2020 263 MB 0 0
4/18/2020 1.1 GB 0 0
4/6/2020 778 MB 0 0
4/2/2020 1.4 GB 0 0
4/1/2020 1.9 GB 0 0
3/30/2020 3 GB 0 0
3/30/2020 1.6 GB 0 0
3/29/2020 3.6 GB 0 0