Spiderman Far From Home (2019) 720p Ita Eng Sub Ita Eng-MIRCrew

Torrent Details


Spiderman Far From Home (2019) 720p ita eng sub ita eng<span style=color:#fc9c6d>-MIRCrew</span>

NAME
Spiderman Far From Home (2019) 720p ita eng sub ita eng-MIRCrew.torrent
CATEGORY
Movies
INFOHASH
3add094b10f801142984b917f020e3dda91bc59d
SIZE
2.6 GB in 5 files
ADDED
Uploaded on 10-10-2019 by our crawler pet called "Spidey".
SWARM
0 seeders & 0 peers
RATING
No votes yet.

Please login to vote for this torrent.


Description

Spider-Man: Far from Home (2019).720p.H264.ita.eng.Ac3-5.1.sub.ita.eng-MIRCrew






NO FOUND ONLY ORIGINAL RELEASE

My release is always in double track audio italian and Original audio
for select it use VLC or dvd player home
not use wmp

Spider-Man: Far from Home (2019)

Quality MIRCrew on HD 720p da 2,5 gb









Lingua originaleinglese
Paese di produzioneStati Uniti d'America
Anno2019
Durata129 min
Rapporto2.39:1
Genereazione, avventura, fantascienza
RegiaJon Watts
SoggettoStan Lee, Steve Ditko (creatori dell'Uomo Ragno)
SceneggiaturaChris McKenna, Erik Sommers



Tom Holland: Peter Parker / Spider-Man
Samuel L. Jackson: Nick Fury
Zendaya: Michelle "MJ" Jones
Cobie Smulders: Maria Hill
Jon Favreau: Harold "Happy" Hogan
J. B. Smoove: Julius Dell
Jacob Batalon: Ned
Martin Starr: Roger Harrington
Marisa Tomei: May Parker
Jake Gyllenhaal: Quentin Beck / Mysterio



Otto mesi dopo gli eventi di Avengers: Endgame, Peter Parker ha ricominciato la scuola, e svela all'amico Ned di essere innamorato della sua compagna di classe MJ, e che ha intenzione, sfruttando la gita in Europa, di dichiararle il suo amore. Nel frattempo Happy Hogan, ex guardia del corpo dell'ormai deceduto Tony Stark, annuncia a Peter che Nick Fury lo chiamerĂ  presto.



Following the events of Avengers: Endgame (2019), Spider-Man must step up to take on new threats in a world that has changed forever.







General

Complete name : Spiderman Far From Home (2019).720p.ita.eng.sub.ita.eng-MIRCrewSpiderman Far From Home (2019).720p.ita.eng.sub.ita.eng-MIRCrew.mkv
Format : Matroska
Format version : Version 2
File size : 2.52 GiB
Duration : 2h 9mn
Overall bit rate : 2 780 Kbps
Movie name : MIRCrew
Encoded date : UTC 2019-10-07 20:09:39
Writing application : mkvmerge v5.8.0 ('No Sleep / Pillow') built on Sep 2 2012 15:37:04
Writing library : Lavf54.63.100
COMMENT : mircrew-releases
COPYRIGHT : robbyrs

Video
ID : 1
Format : AVC
Format/Info : Advanced Video Codec
Format profile : [email protected]
Format settings, CABAC : Yes
Format settings, ReFrames : 2 frames
Codec ID : V_MPEG4/ISO/AVC
Duration : 2h 9mn
Bit rate : 1 900 Kbps
Width : 1 280 pixels
Height : 528 pixels
Display aspect ratio : 2.40:1
Frame rate mode : Variable
Frame rate : 23.976 fps
Color space : YUV
Chroma subsampling : 4:2:0
Bit depth : 8 bits
Scan type : Progressive
Bits/(Pixel*Frame) : 0.117
Stream size : 1.65 GiB (66%)
Title : MIRCrew
Writing library : x264 core 130 r2273
Encoding settings : cabac=1 / ref=2 / deblock=1:0:0 / analyse=0x1:0x131 / me=hex / subme=7 / psy=1 / psy_rd=1.00:0.00 / mixed_ref=0 / me_range=16 / chroma_me=1 / trellis=1 / 8x8dct=0 / cqm=0 / deadzone=21,11 / fast_pskip=1 / chroma_qp_offset=-2 / threads=9 / lookahead_threads=1 / sliced_threads=0 / nr=0 / decimate=1 / interlaced=0 / bluray_compat=0 / constrained_intra=0 / bframes=3 / b_pyramid=0 / b_adapt=1 / b_bias=0 / direct=3 / weightb=1 / open_gop=0 / weightp=2 / keyint=230 / keyint_min=23 / scenecut=40 / intra_refresh=0 / rc_lookahead=40 / rc=abr / mbtree=1 / bitrate=1900 / ratetol=1.0 / qcomp=0.60 / qpmin=10 / qpmax=69 / qpstep=4 / vbv_maxrate=24000 / vbv_bufsize=24000 / nal_hrd=none / ip_ratio=1.40 / aq=1:1.00
Language : Italian
Default : Yes
Forced : No
Encoded date : UTC 2019-09-21 18:12:16

Audio #1
ID : 2
Format : AC-3
Format/Info : Audio Coding 3
Mode extension : CM (complete main)
Codec ID : A_AC3
Duration : 2h 9mn
Bit rate mode : Constant
Bit rate : 448 Kbps
Channel(s) : 6 channels
Channel positions : Front: L C R, Side: L R, LFE
Sampling rate : 48.0 KHz
Bit depth : 16 bits
Compression mode : Lossy
Delay relative to video : -42ms
Stream size : 415 MiB (16%)
Title : Ita Ac3 5.1
Language : English
Default : No
Forced : No
Encoded date : UTC 2019-09-20 17:05:20

Audio #2
ID : 3
Format : AC-3
Format/Info : Audio Coding 3
Mode extension : CM (complete main)
Codec ID : A_AC3
Duration : 2h 9mn
Bit rate mode : Constant
Bit rate : 448 Kbps
Channel(s) : 6 channels
Channel positions : Front: L C R, Side: L R, LFE
Sampling rate : 48.0 KHz
Bit depth : 16 bits
Compression mode : Lossy
Delay relative to video : -5ms
Stream size : 415 MiB (16%)
Title : Eng Ac3 5.1
Language : English
Default : No
Forced : No

Menu
00:00:00.000 : :1
00:09:35.033 : :2
00:16:06.716 : :3
00:25:18.475 : :4
00:35:26.499 : :5
00:41:57.014 : :6
00:49:50.029 : :7
00:57:09.509 : :8
01:04:50.637 : :9
01:15:57.219 : :10
01:22:49.089 : :11
01:29:25.193 : :12
01:36:43.256 : :13
01:44:47.364 : :14
01:52:17.397 : :15
01:57:45.433 : :16

Discussion

Comments 0

Post Your Comment

Files in this torrent

FILENAMESIZE
MIRCrew.png182.3 KB
Spiderman Far From Home (2019).720p.ita.eng.sub.ita.eng-MIRCrew.eng.sup35.7 MB
Spiderman Far From Home (2019).720p.ita.eng.sub.ita.eng-MIRCrew.ita.srt118.8 KB
Spiderman Far From Home (2019).720p.ita.eng.sub.ita.eng-MIRCrew.mkv2.5 GB
Spiderman Far From Home (2019).720p.ita.eng.sub.ita.eng-MIRCrew.srt1.3 KB

Alternative Torrents for 'Spiderman Far From Home eng sub eng'.

TORRENT NAME ADDED SIZE SEEDS PEERS HEALTH
10/10/2019 2.6 GB 0 0