Our Mothers [Nuestras Madres] 2019 1080p WEBRip X264 AC3 HORiZON-ArtSubs

Torrent Details


Our Mothers [Nuestras Madres] 2019 1080p WEBRip x264 AC3 HORiZON-ArtSubs

NAME
Our Mothers [Nuestras Madres] 2019 1080p WEBRip x264 AC3 HORiZON-ArtSubs.torrent
CATEGORY
Movies
INFOHASH
4c0ed061295f0c74f261925a1209b7aaac8e764e
SIZE
1.6 GB in 1 file
ADDED
Uploaded on 02-08-2020 by our crawler pet called "Spidey".
SWARM
5 seeders & 1 peers
RATING
No votes yet.

Please login to vote for this torrent.


Description

Release: Our.Mothers.[Nuestras.Madres].2019.1080p.WEBRip.x264.AC3.HORiZON-ArtSubs







IMDB: https://www.imdb.com/title/tt9206516/



Subtitle: French (Softcoded)



Plot: Ernesto is a young anthropologist in Guatemala. One day, while hearing the account of an old woman, he thinks he has found a lead that might guide him to his father, a "guerrillero" who went missing during the war.



Complete name                            : Our.Mothers.[Nuestras.Madres].2019.1080p.WEBRip.x264.AC3.HORiZON-ArtSubs

Format                      : Matroska

Format version              : Version 4

File size                   : 1.59 GiB

Duration                    : 1 h 13 min

Overall bit rate            : 3 114 kb/s

Movie name                  : Nuestras.Madres.2019.1080p.WEB-DLx264.AC3.HORiZON-ArtSubs

Writing application         : DVDFab

Writing library             : DVDFab

ErrorDetectionType          : Per level 1



Video

ID                          : 1

Format                      : AVC

Format/Info                 : Advanced Video Codec

Format profile              : [email protected]

Format settings             : CABAC / 4 Ref Frames

Format settings, CABAC      : Yes

Format settings, Reference  : 4 frames

Codec ID                    : V_MPEG4/ISO/AVC

Duration                    : 1 h 13 min

Bit rate                    : 4 621 kb/s

Nominal bit rate            : 2 800 kb/s

Width                       : 1 920 pixels

Height                      : 806 pixels

Display aspect ratio        : 2.40:1

Frame rate mode             : Constant

Frame rate                  : 25.000 FPS

Color space                 : YUV

Chroma subsampling          : 4:2:0

Bit depth                   : 8 bits

Scan type                   : Progressive

Bits/(Pixel*Frame)          : 0.119

Stream size                 : 2.37 GiB

Title                       : iTunes

Writing library             : x264 core 155 r2917M 0a84d98

Encoding settings           : cabac=1 / ref=3 / deblock=1:0:0 / analyse=0x3:0x113 / me=hex / subme=7 / psy=1 / psy_rd=1.00:0.00 / mixed_ref=1 / me_range=16 / chroma_me=1 / trellis=1 / 8x8dct=1 / cqm=0 / deadzone=21,11 / fast_pskip=1 / chroma_qp_offset=-2 / threads=6 / lookahead_threads=1 / sliced_threads=0 / nr=0 / decimate=1 / interlaced=0 / bluray_compat=0 / constrained_intra=0 / bframes=3 / b_pyramid=2 / b_adapt=1 / b_bias=0 / direct=1 / weightb=1 / open_gop=0 / weightp=2 / keyint=25 / keyint_min=2 / scenecut=40 / intra_refresh=0 / rc_lookahead=25 / rc=2pass / mbtree=1 / bitrate=2800 / ratetol=1.0 / qcomp=0.60 / qpmin=0 / qpmax=69 / qpstep=4 / cplxblur=20.0 / qblur=0.5 / vbv_maxrate=2800 / vbv_bufsize=2800 / nal_hrd=none / filler=0 / ip_ratio=1.40 / aq=1:1.00

Default                     : Yes

Forced                      : No



Audio

ID                          : 2

Format                      : AC-3

Format/Info                 : Audio Coding 3

Commercial name             : Dolby Digital

Codec ID                    : A_AC3

Duration                    : 1 h 13 min

Bit rate mode               : Constant

Bit rate                    : 384 kb/s

Channel(s)                  : 6 channels

Channel layout              : L R C LFE Ls Rs

Sampling rate               : 48.0 kHz

Frame rate                  : 31.250 FPS (1536 SPF)

Bit depth                   : 32 bits

Compression mode            : Lossy

Delay relative to video     : -40 ms

Stream size                 : 201 MiB (12%)

Title                       : Spanish (VO)

Language                    : Spanish

Service kind                : Complete Main

Default                     : Yes

Forced                      : No



Text

ID                          : 3

Format                      : UTF-8

Codec ID                    : S_TEXT/UTF8

Codec ID/Info               : UTF-8 Plain Text

Duration                    : 1 h 10 min

Bit rate                    : 37 b/s

Count of elements           : 565

Stream size                 : 18.6 KiB (0%)

Title                       : French

Writing library             : DVDFab srt

Language                    : French

Default                     : Yes

Forced                      : No



SCREENSHOTS:









Discussion

Comments 0

Post Your Comment

Files in this torrent

FILENAMESIZE
Our.Mothers.[Nuestras.Madres].2019.1080p.WEBRip.x264.AC3.HORiZON-ArtSubs.mkv1.6 GB

Alternative Torrents for 'Our Mothers Nuestras Madres HORiZONArtSubs'.

TORRENT NAMEADDEDSIZESEEDSPEERSHEALTH
8/5/20201 MB1299
7/30/2020500 MB8516
7/30/20201.2 GB8518
7/30/2020790 MB8310
7/30/2020927 MB7518
7/30/2020582 MB5810
8/1/202064 MB494
Yesterday1 MB473
7/30/2020385 MB4513
7/31/2020993 kB436
Today706 MB4216
Today873 MB3930
8/6/2020518 MB3917
Today1.1 GB358
Today384 MB358