Форпост (2020) WEB-DLRip-AVC [-=DoMiNo=-]

Torrent Details


Форпост (2020) WEB-DLRip-AVC <span style=color:#fc9c6d>[-=DoMiNo=-]</span>

NAME
Форпост (2020) WEB-DLRip-AVC [-=DoMiNo=-].torrent
CATEGORY
Movies
INFOHASH
85954437329cbe6f1e1dc5c80fec1e64b0c6311c
SIZE
2.3 GB in 0 files
ADDED
Uploaded on 02-08-2020 by our crawler pet called "Spidey".
SWARM
24 seeders & 28 peers
RATING
No votes yet.

Please login to vote for this torrent.


Description

Информация о фильме

Название: Форпост

Оригинальное название: The Outpost

Год выпуска: 2020

Жанр: Боевик, военный, драма, история

Режиссер: Род Лури

В ролях: Орландо Блум, Скотт Иствуд, Калеб Лэндри Джонс, Майло Гибсон, Бобби Локвуд, Джейкоб Скипио, Джек Кеси, Селина Синден, Тейлор Джон Смит, Александр Арнольд, Джеймс Джаггер



О фильме:

Действия фильма происходят 3 октября 2009 года в Афганистане. У подножия гор, недалеко от поселения Кадмеш, расположился американский Форпост. Тай Картер и сержант Ромеш Клинтон имеют в своем распоряжении пятьдесят три бойца. Никто из них не ожидал, что им предстоит отбивать прорыв многочисленной банды талибов. Четыреста человек готовятся к наступлению, и солдаты просто не могут отдать позиции. Несмотря на неравные силы, бойцы готовы дать отпор, действуя строго по уставу. Им не приходится ждать помощи, поскольку следующая база слишком далека от них. Смогут ли они выполнить свой долг и отбить нападение, и какую цену им предстоит заплатить?.







Страна: США, Болгария,

Студия: Millennium Media, York Films

Продолжительность: 02:03:11

Перевод: Профессиональный многоголосый [HDRezka Studio]

Субтитры: Русские (форс), английские



*** Присутствует ненормативная лексика!



Файл

Формат: Matroska

Качество: WEB-DLRip-AVC | AMZN

Видео: 1036x560 at 23.976 fps, [email protected], ~2222 kbps, 0.160 bpp

Аудио: AC3, 6 ch, ~448 kbps - | Русский | -

Формат субтитров: softsub (SRT)



***Релиз от: -=DoMiNo=-



M/Ix264 [info]: frame I:1019 Avg QP:15.37 size: 65729

x264 [info]: frame P:41480 Avg QP:18.00 size: 25023

x264 [info]: frame B:134717 Avg QP:20.56 size: 7036

x264 [info]: consecutive B-frames: 2.1% 2.6% 9.3% 39.4% 13.3% 22.5% 3.6% 2.6% 0.8% 0.5% 0.7% 1.0% 1.7%



General

Format : Matroska

Format version : Version 4

File size : 2.30 GiB

Duration : 2 h 3 min

Overall bit rate : 2 672 kb/s

Movie name : Форпост.(2020).WEB-DLRip-AVC.[-=DoMiNo=-]

Encoded date : UTC 2020-08-02 18:37:13

Writing application : mkvmerge v49.0.0 ('Sick Of Losing Soulmates') 64-bit

Writing library : libebml v1.4.0 + libmatroska v1.6.1

Cover : Yes

Attachments : Cover.jpg / Cover 2.jpg



Video

ID : 1

Format : AVC

Format/Info : Advanced Video Codec

Format profile : [email protected]

Format settings : CABAC / 12 Ref Frames

Format settings, CABAC : Yes

Format settings, Reference : 12 frames

Codec ID : V_MPEG4/ISO/AVC

Duration : 2 h 3 min

Bit rate : 2 222 kb/s

Width : 1 036 pixels

Height : 560 pixels

Display aspect ratio : 1.85:1

Frame rate mode : Constant

Frame rate : 23.976 (24000/1001) FPS

Color space : YUV

Chroma subsampling : 4:2:0

Bit depth : 8 bits

Scan type : Progressive

Bits/(Pixel*Frame) : 0.160

Stream size : 1.91 GiB (83%)

Title : -=DoMiNo=-

Writing library : x264 core 161 r3018 db0d417

Encoding settings : cabac=1 / ref=12 / deblock=1:-3:-3 / analyse=0x3:0x133 / me=umh / subme=10 / psy=1 / psy_rd=1.00:0.00 / mixed_ref=1 / me_range=32 / chroma_me=1 / trellis=2 / 8x8dct=1 / cqm=0 / deadzone=21,11 / fast_pskip=1 / chroma_qp_offset=-2 / threads=6 / lookahead_threads=1 / sliced_threads=0 / nr=0 / decimate=1 / interlaced=0 / bluray_compat=0 / constrained_intra=0 / bframes=12 / b_pyramid=2 / b_adapt=2 / b_bias=0 / direct=1 / weightb=1 / open_gop=0 / weightp=2 / keyint=250 / keyint_min=23 / scenecut=40 / intra_refresh=0 / rc_lookahead=60 / rc=crf / mbtree=0 / crf=18.7 / qcomp=0.60 / qpmin=0 / qpmax=69 / qpstep=4 / vbv_maxrate=50000 / vbv_bufsize=62500 / crf_max=0.0 / nal_hrd=none / filler=0 / ip_ratio=1.40 / pb_ratio=1.30 / aq=3:0.80

Language : English

Default : Yes

Forced : No

Color range : Limited

Color primaries : BT.709

Transfer characteristics : BT.709

Matrix coefficients : BT.709



Audio

ID : 2

Format : AC-3

Format/Info : Audio Coding 3

Commercial name : Dolby Digital

Codec ID : A_AC3

Duration : 2 h 3 min

Bit rate mode : Constant

Bit rate : 448 kb/s

Channel(s) : 6 channels

Channel layout : L R C LFE Ls Rs

Sampling rate : 48.0 kHz

Frame rate : 31.250 FPS (1536 SPF)

Compression mode : Lossy

Stream size : 395 MiB (17%)

Title : MVO | HDRezka Studio

Language : Russian

Service kind : Complete Main

Default : Yes

Forced : No



Text #1

ID : 3

Format : UTF-8

Codec ID : S_TEXT/UTF8

Codec ID/Info : UTF-8 Plain Text

Duration : 1 h 53 min

Bit rate : 4 b/s

Count of elements : 37

Stream size : 3.32 KiB (0%)

Title : Forced

Language : Russian

Default : Yes

Forced : No



Text #2

ID : 4

Format : UTF-8

Codec ID : S_TEXT/UTF8

Codec ID/Info : UTF-8 Plain Text

Duration : 2 h 1 min

Bit rate : 78 b/s

Count of elements : 2805

Stream size : 69.8 KiB (0%)

Language : English

Default : No

Forced : No



Text #3

ID : 5

Format : UTF-8

Codec ID : S_TEXT/UTF8

Codec ID/Info : UTF-8 Plain Text

Duration : 2 h 1 min

Bit rate : 82 b/s

Count of elements : 3041

Stream size : 73.2 KiB (0%)

Title : SDH

Language : English

Default : No

Forced : NoСкриншоты

Discussion

Comments 0

Post Your Comment

Torrent Files (Unavailable)

Please check back later to get a list of all files included in this torrent.

Alternative Torrents for 'Форпост DLRipAVC'.

TORRENT NAMEADDEDSIZESEEDSPEERSHEALTH
Yesterday2.3 GB2428