Emanuelle E Françoise (Le Sorelline) 1975 BDREMUX 1080p

Torrent Details

Emanuelle e Françoise (Le sorelline)  1975 BDREMUX 1080p
Emanuelle e Françoise (Le sorelline)  1975 BDREMUX 1080p

NAME
Emanuelle e Françoise (Le sorelline) 1975 BDREMUX 1080p.torrent
CATEGORY
Movies
INFOHASH
5053b4d3000b56b7a4945fc6976564997270a782
SIZE
15 GB in 1 file
ADDED
Uploaded on 02-08-2020 by our crawler pet called "Spidey".
SWARM
6 seeders & 2 peers
RATING
No votes yet.

Please login to vote for this torrent.


Description

Информация о фильме

Название: Эммануэль и Француаза, сестрички

Оригинальное название: Emanuelle e Françoise - Le Sorelline

Год выхода: 1975

Жанр: Ужасы, триллер, драма, эротика

Режиссер: Джо Д’Амато

В ролях: Джордж Истмен, Розмари Линдт, Энни Кэрол Эдел, Патриция Гори, Maria Rosaria Riuzzi, Массимо Ванни, Эоло, Капритти, Джорджо Фиери, Кэролин Де Фонсека, Анна Мария Полини



О фильме:

Эмануэль решает отомстить за свою сестру, которая совершила самоубийство после того, как над ней долгое время издевался молодой человек. Главная героиня находит подонка и приковывает его к стене в темном подвале. Она заставляет его смотреть как она занимается сексом и ему начинают видится страшные кровавые галлюцинации. Он понимает, что ему нужно вырваться из плена и убить дерзкую Эмануэль.







Страна: Италия

Студия: Matra Cinematografica

Продолжительность: 01:38:15

Перевод: Любительский (одноголосый закадровый)



Файл

Кодек: h.264

Качество: BDRemux 1080p

Видео: MPEG4 AVC, ~ 21.0 Мбит/с, 1920x1080, 23.976 кадра/сек

Аудио #1: Русский (AC3, 2 ch, 192 Кбит/с)

Аудио #2: Английский (FLAC, 2 ch, 410 Кбит/с)

Аудио #3: Итальянский (FLAC, 2 ch, 252 Кбит/с)

Субтитры: Английские

MI:General

Unique ID : 325560011777222027757995358950202621384 (0xF4EC93D9826D6BC1BDBB0BFC06693DC8)

Complete name : F:Новая папка (27)Emanuelle e Françoise (Le sorelline) .1975.BDREMUX 1080p.mkv

Format : Matroska

Format version : Version 4

File size : 15.0 GiB

Duration : 1 h 38 min

Overall bit rate mode : Variable

Overall bit rate : 21.8 Mb/s

Movie name : Emanuelle e Françoise (Le sorelline) .1975.BDREMUX 1080p

Encoded date : UTC 2020-07-01 14:00:34

Writing application : mkvmerge v29.0.0 ('Like It Or Not') 64-bit

Writing library : libebml v1.3.6 + libmatroska v1.4.9



Video

ID : 1

Format : AVC

Format/Info : Advanced Video Codec

Format profile : [email protected]

Format settings : CABAC / 3 Ref Frames

Format settings, CABAC : Yes

Format settings, RefFrames : 3 frames

Codec ID : V_MPEG4/ISO/AVC

Duration : 1 h 38 min

Bit rate mode : Variable

Bit rate : 21.0 Mb/s

Maximum bit rate : 35.0 Mb/s

Width : 1 920 pixels

Height : 1 080 pixels

Display aspect ratio : 16:9

Frame rate mode : Constant

Frame rate : 23.976 (24000/1001) FPS

Standard : NTSC

Color space : YUV

Chroma subsampling : 4:2:0

Bit depth : 8 bits

Scan type : Progressive

Bits/(Pixel*Frame) : 0.422

Stream size : 14.4 GiB (96%)

Title : Emanuelle e Françoise (Le sorelline) .1975.BDREMUX 1080p

Writing library : x264pro - Adobe CS Exporter Plug-in

Encoding settings : cabac=1 / ref=4 / deblock=1:-1:-1 / analyse=0x3:0x113 / me=umh / subme=8 / psy=1 / psy_rd=1.00:0.15 / mixed_ref=1 / me_range=16 / chroma_me=1 / trellis=1 / 8x8dct=1 / cqm=0 / deadzone=21,11 / fast_pskip=1 / chroma_qp_offset=-3 / threads=36 / lookahead_threads=6 / sliced_threads=0 / slices=4 / nr=0 / decimate=1 / interlaced=0 / bluray_compat=1 / constrained_intra=0 / bframes=3 / b_pyramid=1 / b_adapt=2 / b_bias=0 / direct=3 / weightb=1 / open_gop=0 / weightp=1 / keyint=24 / keyint_min=1 / scenecut=40 / intra_refresh=0 / rc_lookahead=24 / rc=2pass / mbtree=1 / bitrate=21000 / ratetol=1.0 / qcomp=0.60 / qpmin=0 / qpmax=69 / qpstep=4 / cplxblur=20.0 / qblur=0.5 / vbv_maxrate=35000 / vbv_bufsize=30000 / nal_hrd=vbr / ip_ratio=1.40 / aq=1:1.00

Language : Italian

Default : Yes

Forced : No

Color range : Limited

Color primaries : BT.709

Transfer characteristics : BT.709

Matrix coefficients : BT.709



Audio #1

ID : 2

Format : AC-3

Format/Info : Audio Coding 3

Commercial name : Dolby Digital

Codec ID : A_AC3

Duration : 1 h 38 min

Bit rate mode : Constant

Bit rate : 192 kb/s

Channel(s) : 2 channels

Channel layout : L R

Sampling rate : 48.0 kHz

Frame rate : 31.250 FPS (1536 SPF)

Bit depth : 16 bits

Compression mode : Lossy

Stream size : 135 MiB (1%)

Title : Russian (VO)

Language : Russian

Service kind : Complete Main

Default : Yes

Forced : No



Audio #2

ID : 3

Format : FLAC

Format/Info : Free Lossless Audio Codec

Codec ID : A_FLAC

Duration : 1 h 38 min

Bit rate mode : Variable

Bit rate : 410 kb/s

Channel(s) : 2 channels

Channel layout : L R

Sampling rate : 48.0 kHz

Frame rate : 11.719 FPS (4096 SPF)

Bit depth : 16 bits

Compression mode : Lossless

Stream size : 288 MiB (2%)

Title : English

Writing library : libFLAC 1.3.2 (UTC 2017-01-01)

Language : English

Default : No

Forced : No



Audio #3

ID : 4

Format : FLAC

Format/Info : Free Lossless Audio Codec

Codec ID : A_FLAC

Duration : 1 h 38 min

Bit rate mode : Variable

Bit rate : 252 kb/s

Channel(s) : 2 channels

Channel layout : L R

Sampling rate : 48.0 kHz

Frame rate : 11.719 FPS (4096 SPF)

Bit depth : 16 bits

Compression mode : Lossless

Stream size : 177 MiB (1%)

Title : Italian

Writing library : libFLAC 1.3.2 (UTC 2017-01-01)

Language : Italian

Default : No

Forced : No



Text #1

ID : 5

Format : UTF-8

Codec ID : S_TEXT/UTF8

Codec ID/Info : UTF-8 Plain Text

Duration : 1 h 37 min

Bit rate : 41 b/s

Count of elements : 1049

Stream size : 29.5 KiB (0%)

Language : English

Default : No

Forced : No



Text #2

ID : 6

Format : UTF-8

Codec ID : S_TEXT/UTF8

Codec ID/Info : UTF-8 Plain Text

Duration : 1 h 35 min

Bit rate : 28 b/s

Count of elements : 555

Stream size : 19.7 KiB (0%)

Title : for the Italian track

Language : English

Default : No

Forced : No



Menu

00:00:00.000 : en:Chapter 01

00:13:09.122 : en:Chapter 02

00:27:24.393 : en:Chapter 03

00:42:04.105 : en:Chapter 04

00:58:04.648 : en:Chapter 05

01:15:56.844 : en:Chapter 06

Скриншоты

Discussion

Comments 0

Post Your Comment

Files in this torrent

FILENAMESIZE
Emanuelle e Françoise (Le sorelline) .1975.BDREMUX 1080p.mkv15 GB

Alternative Torrents for 'Emanuelle Françoise Le sorelline'.

TORRENT NAMEADDEDSIZESEEDSPEERSHEALTH
8/2/202015 GB62