Dark S03 WEBRip

Torrent Details

Dark S03 WEBRip
Dark S03 WEBRip

NAME
Dark S03 WEBRip.torrent
CATEGORY
Television
INFOHASH
8e043b65bec8b9f883ca9cf9ae1881e02d54719a
SIZE
4.6 GB in 8 files
ADDED
Uploaded on 01-07-2020 by our crawler pet called "Spidey".
SWARM
16 seeders & 18 peers
RATING
No votes yet.

Please login to vote for this torrent.


Description

Информация о фильме

Название: Тьма

Оригинальное название: Dark

Год выхода: 2017

Жанр: Триллер, фантастика, драма, криминал, детектив





Режиссер: Баран бо Одар





В ролях: Оливер Мазуччи, Каролина Эйхгорн, Йордис Трибель, Луис Хофманн, Майя Шёне, Штефан Кампвирт, Андреас Пичман, Дебора Кауфман, Татя Зайбт





О фильме:

История четырёх семей, живущих спокойной и размеренной жизнью в маленьком немецком городке. Видимая идиллия рушится, когда бесследно исчезают двое детей и воскресают тёмные тайны прошлого.











Страна: Германия, США

Продолжительность серии: ~ 01:02:00

Перевод: Профессиональный (многоголосый закадровый) | HDRezka Studio





Файл

Кодек: x.264

Качество: WEBRip-AVC

Видео: AVC, 720x360 (2.000), 24.000 fps, 1 100 kb/s

Аудио: AC3, 48.0 kHz, 2 ch, 192 kb/s

Субтитры: Русские (Netflix)



Рекламы нет



MIGeneral

Unique ID : 223013860018465451285094056679196203330 (0xA7C6E837DB216B75B7925EF077721942)

Complete name : Dark.S03E01.WEBRip.AVC.mkv

Format : Matroska

Format version : Version 4

File size : 572 MiB

Duration : 1 h 2 min

Overall bit rate : 1 287 kb/s

Encoded date : UTC 2020-07-01 07:51:02

Writing application : mkvmerge v8.3.0 ('Over the Horizon') 64bit

Writing library : libebml v1.3.1 + libmatroska v1.4.2



Video

ID : 1

Format : AVC

Format/Info : Advanced Video Codec

Format profile : [email protected]

Format settings : CABAC / 5 Ref Frames

Format settings, CABAC : Yes

Format settings, ReFrames : 5 frames

Codec ID : V_MPEG4/ISO/AVC

Duration : 1 h 2 min

Bit rate : 1 100 kb/s

Width : 720 pixels

Height : 360 pixels

Display aspect ratio : 2.000

Frame rate mode : Constant

Frame rate : 24.000 FPS

Color space : YUV

Chroma subsampling : 4:2:0

Bit depth : 8 bits

Scan type : Progressive

Bits/(Pixel*Frame) : 0.177

Stream size : 486 MiB (85%)

Writing library : x264 core 148 r2795M aaa9aa8

Encoding settings : cabac=1 / ref=5 / deblock=1:-1:-1 / analyse=0x3:0x113 / me=umh / subme=9 / psy=1 / psy_rd=1.00:0.15 / mixed_ref=1 / me_range=16 / chroma_me=1 / trellis=2 / 8x8dct=1 / cqm=0 / deadzone=21,11 / fast_pskip=1 / chroma_qp_offset=-3 / threads=24 / lookahead_threads=2 / sliced_threads=0 / nr=0 / decimate=1 / interlaced=0 / bluray_compat=0 / constrained_intra=0 / bframes=3 / b_pyramid=2 / b_adapt=2 / b_bias=0 / direct=3 / weightb=1 / open_gop=0 / weightp=2 / keyint=250 / keyint_min=24 / scenecut=40 / intra_refresh=0 / rc_lookahead=50 / rc=abr / mbtree=1 / bitrate=1100 / ratetol=1.0 / qcomp=0.60 / qpmin=0 / qpmax=69 / qpstep=4 / ip_ratio=1.40 / aq=1:1.00

Default : Yes

Forced : No



Audio

ID : 2

Format : AC-3

Format/Info : Audio Coding 3

Commercial name : Dolby Digital

Codec ID : A_AC3

Duration : 1 h 2 min

Bit rate mode : Constant

Bit rate : 192 kb/s

Channel(s) : 2 channels

Channel layout : L R

Sampling rate : 48.0 kHz

Frame rate : 31.250 FPS (1536 SPF)

Bit depth : 16 bits

Compression mode : Lossy

Stream size : 85.3 MiB (15%)

Language : Russian

Service kind : Complete Main

Default : Yes

Forced : No



Text

ID : 3

Format : UTF-8

Codec ID : S_TEXT/UTF8

Codec ID/Info : UTF-8 Plain Text

Duration : 57 min 13 s

Bit rate : 42 b/s

Count of elements : 455

Stream size : 17.9 KiB (0%)

Language : Russian

Default : No

Forced : NoСкриншоты

Discussion

Comments 0

Post Your Comment

Files in this torrent

FILENAMESIZE
Dark.S03E01.WEBRip.AVC.mkv571.7 MB
Dark.S03E02.WEBRip.AVC.mkv551.3 MB
Dark.S03E03.WEBRip.AVC.mkv522.9 MB
Dark.S03E04.WEBRip.AVC.mkv593.8 MB
Dark.S03E05.WEBRip.AVC.mkv588.3 MB
Dark.S03E06.WEBRip.AVC.mkv539.9 MB
Dark.S03E07.WEBRip.AVC.mkv640.8 MB
Dark.S03E08.WEBRip.AVC.mkv669 MB

Alternative Torrents for 'Dark'.

TORRENT NAMEADDEDSIZESEEDSPEERSHEALTH
6/27/20203.5 GB16461311
6/27/20206 GB833682
6/27/20202.4 GB606302
6/27/202015.1 GB286369
6/27/20206.4 GB25998
6/27/20202.1 GB240344
6/28/20205.8 GB183144
6/27/202027.7 GB17297
Yesterday211 MB16034
6/29/20204.8 GB14451
6/27/20202.2 GB14334
6/27/20201.9 GB14241
Yesterday805 MB13921
6/27/2020997 MB13930
6/27/20201.2 GB13631