10 Minutes Gone (2019) 2160p HDR 5 1 X265 10bit Phun Psyz

Torrent Details


10 Minutes Gone (2019) 2160p HDR 5 1 x265 10bit Phun Psyz

NAME
10 Minutes Gone (2019) 2160p HDR 5 1 x265 10bit Phun Psyz.torrent
CATEGORY
Movies
INFOHASH
23f7ebe04735d2f7314dfd6e2cdee3fe767896b7
SIZE
2.7 GB in 1 file
ADDED
Uploaded on 24-05-2020 by our crawler pet called "Spidey".
SWARM
14 seeders & 14 peers
RATING
No votes yet.

Please login to vote for this torrent.


Description

www.imdb.com/title/tt8809652/

A crime thriller that centers on a man whose memory has been lost due to a bank heist gone wrong. The character will need to piece together the missing 10 minutes from his memory in order to determine who sabotaged him.

Source: DDR (Web)



Format : Matroska
Format version : Version 4
File size : 2.67 GiB
Duration : 1 h 28 min
Overall bit rate : 4 329 kb/s
Writing application : HandBrake 1.2.0 2018121700
Writing library : Lavf58.20.100

Video
ID : 1
Format : HEVC
Format/Info : High Efficiency Video Coding
Format profile : Main [email protected]@High
Codec ID : V_MPEGH/ISO/HEVC
Duration : 1 h 28 min
Bit rate : 3 923 kb/s
Width : 3 840 pixels
Height : 2 080 pixels
Display aspect ratio : 1.85:1
Frame rate mode : Constant
Frame rate : 23.976 (24000/1001) FPS
Color space : YUV
Chroma subsampling : 4:2:0
Bit depth : 10 bits
Bits/(Pixel*Frame) : 0.020
Stream size : 2.42 GiB (91%)
Writing library : x265 2.9:[Windows][GCC 7.1.0][64 bit] 10bit
Color range : Full
Color primaries : BT.2020
Transfer characteristics : PQ
Matrix coefficients : BT.2020 non-constant

Audio
ID : 2
Format : AC-3
Format/Info : Audio Coding 3
Commercial name : Dolby Digital
Codec ID : A_AC3
Duration : 1 h 28 min
Bit rate mode : Constant
Bit rate : 320 kb/s
Channel(s) : 6 channels
Channel layout : L R C LFE Ls Rs
Sampling rate : 48.0 kHz
Frame rate : 31.250 FPS (1536 SPF)
Bit depth : 16 bits
Compression mode : Lossy
Delay relative to video : -5 ms
Stream size : 202 MiB (7%)
Title : Surround
Language : English

Text
Language : English
Default : No
Forced : No

Discussion

Comments 0

Post Your Comment

Files in this torrent

FILENAMESIZE
10 Minutes Gone (2019) 2160p HDR 5.1 x265 10bit Phun Psyz.mkv2.7 GB

Alternative Torrents for 'Minutes Gone HDR bit Phun Psyz'.

TORRENT NAME ADDED SIZE SEEDS PEERS HEALTH
5/22/2020 1.2 GB 383 16
5/20/2020 2.1 GB 159 8
5/16/2020 1.9 GB 125 5
5/19/2020 31 GB 83 60
5/18/2020 4.1 GB 69 21
5/23/2020 40.8 GB 54 19
5/24/2020 14.4 GB 51 76
5/24/2020 13.9 GB 51 90
5/24/2020 9.5 GB 48 32
5/17/2020 7.2 GB 48 15
5/24/2020 17.4 GB 44 90
5/22/2020 1.8 GB 44 20
5/20/2020 24.3 GB 44 13
5/15/2020 10.1 GB 44 17
5/14/2020 796 MB 42 3