Blood And Money 2020 720p LakeFilms

Torrent Details

Blood and Money 2020 720p<span style=color:#fc9c6d> LakeFilms</span>
Blood and Money 2020 720p<span style=color:#fc9c6d> LakeFilms</span>

NAME
Blood and Money 2020 720p LakeFilms.torrent
CATEGORY
Movies
INFOHASH
98a9f22d16e816ecbea8ba8c5ed8971b3424cc5a
SIZE
2.1 GB in 1 file
ADDED
Uploaded on 17-05-2020 by our crawler pet called "Spidey".
SWARM
0 seeders & 0 peers
RATING
No votes yet.

Please login to vote for this torrent.


Description

Название: Кровь и деньги

Оригинальное название: Allagash (Blood and Money)

Год выпуска: 2020

Жанр: Триллер

Выпущено: США, Allagash

Режиссер: Джон Барр

В ролях: Том Беренджер, Кристен Хагер, Пол Бен-Виктор, Эрика МакДермотт, Райан Хомчик, Марк Сивертсен, Каролина Порту, Джимми ЛеБланк, Бейтс Уайлдер, Брайан Даффи



О фильме: Ветеран, промышляющий охотой на безлюдных просторах лесов штата Мэн, случайно находит в лесу труп женщины с сумкой набитой деньгами и становится целью бандитов, которым они принадлежат.







Техданные

Качество: WEBRip (720p)

Видео: MPEG-4 AVC, ~ 3 100 kb/s, 1280x638, 23.976 FPS

Аудио: AC3, 2 ch, 256 Кбит/с

Продолжительность: 01:29:47

Перевод: Любительский двухголосый закадровый (LakeFilms)

Присутствует реклама!



Скриншоты

MIGeneral

Unique ID : 271810765996555429853210088381761053224 (0xCC7CD96E9B1262E3606EF42FE3A1E228)

Complete name : D:Blood.and.Money.2020.720p.LakeFilms.mkv

Format : Matroska

Format version : Version 4 / Version 2

File size : 2.10 GiB

Duration : 1 h 29 min

Overall bit rate : 3 352 kb/s

Writing application : XviD4PSP 8.0.96

Writing library : Lavf58.29.100

ErrorDetectionType : Per level 1

ENCODING_INFO : MATROSKA,WEBM > MKV



Video

ID : 1

Format : AVC

Format/Info : Advanced Video Codec

Format profile : [email protected]

Format settings : CABAC / 4 Ref Frames

Format settings, CABAC : Yes

Format settings, RefFrames : 4 frames

Codec ID : V_MPEG4/ISO/AVC

Duration : 1 h 29 min

Bit rate : 3 100 kb/s

Width : 1 280 pixels

Height : 638 pixels

Display aspect ratio : 2.006

Frame rate mode : Constant

Frame rate : 23.976 (24000/1001) FPS

Color space : YUV

Chroma subsampling : 4:2:0

Bit depth : 8 bits

Scan type : Progressive

Bits/(Pixel*Frame) : 0.158

Stream size : 1.90 GiB (90%)

Writing library : x264 core 157 r2958 57baac4

Encoding settings : cabac=1 / ref=1 / deblock=1:-1:-1 / analyse=0x3:0x3 / me=hex / subme=1 / psy=1 / psy_rd=1.00:0.00 / mixed_ref=0 / me_range=16 / chroma_me=1 / trellis=0 / 8x8dct=1 / cqm=0 / deadzone=21,11 / fast_pskip=1 / chroma_qp_offset=0 / threads=5 / lookahead_threads=1 / sliced_threads=0 / nr=0 / decimate=1 / interlaced=0 / bluray_compat=0 / constrained_intra=0 / bframes=3 / b_pyramid=2 / b_adapt=1 / b_bias=0 / direct=1 / weightb=1 / open_gop=0 / weightp=1 / keyint=240 / keyint_min=24 / scenecut=40 / intra_refresh=0 / rc=abr / mbtree=0 / bitrate=3100 / ratetol=1.0 / qcomp=0.60 / qpmin=0 / qpmax=69 / qpstep=4 / ip_ratio=1.40 / pb_ratio=1.30 / aq=1:1.00

Default : Yes

Forced : No

ENCODING_INFO : H264 > X264 ABR 3100kbps Super Fast



Audio

ID : 2

Format : AC-3

Format/Info : Audio Coding 3

Codec ID : A_AC3

Duration : 1 h 29 min

Bit rate mode : Constant

Bit rate : 256 kb/s

Channel(s) : 2 channels

Channel positions : Front: L R

Sampling rate : 48.0 kHz

Frame rate : 31.250 FPS (1536 SPF)

Bit depth : 16 bits

Compression mode : Lossy

Stream size : 164 MiB (8%)

Service kind : Complete Main

Default : Yes

Forced : No

ENCODING_INFO : AAC-LC > AC3 CBR 256kbps

Discussion

Comments 0

Post Your Comment

Files in this torrent

FILENAMESIZE
Blood.and.Money.2020.720p.LakeFilms.mkv2.1 GB

Alternative Torrents for 'Blood and Money'.

TORRENT NAMEADDEDSIZESEEDSPEERSHEALTH
7/2/2020821 MB443135
7/2/20201.6 GB27159
7/2/20201.3 GB19032
7/2/20201.4 GB10316
7/3/20201.1 GB5629
7/2/20209.3 GB5120
7/3/202010.7 GB5025
7/4/20202 GB48159
7/3/2020631 MB187
7/4/20201.9 GB1711
7/3/20204.5 GB153
7/2/2020628 MB153
7/3/20201.3 GB122
Today11.1 GB831
Today20.6 GB610