Trigger 2018 WEB-DLRip GeneralFilm

Torrent Details


Trigger 2018 WEB-DLRip<span style=color:#fc9c6d> GeneralFilm</span>

NAME
Trigger 2018 WEB-DLRip GeneralFilm.torrent
CATEGORY
Television
INFOHASH
491451780f0ff166465553518107e99e54018357
SIZE
2.2 GB in 4 files
ADDED
Uploaded on 15-02-2020 by our crawler pet called "Spidey".
SWARM
7 seeders & 3 peers
RATING
No votes yet.

Please login to vote for this torrent.


Description

Оригинальное название: Триггер (Провокатор)

Год выпуска: 2018

Жанр: Драма

Выпущено: Россия, Продюсерский центр «Среда»

Режиссер: Дмитрий Тюрин

В ролях: Максим Матвеев, Игорь Костолевский, Светлана Иванова, Виктория Маслова, Роман Маякин, Владислав Тирон, Ангелина Стречина, Марк Юсеф, Данила Дунаев, Ян Цапник, Даниил Воробьёв, Янина Малинчик, Олег Масленников-Войтов, Дарья Буткеева, Маруся Пестунова, Екатерина Соломатина, Хельга Филиппова, Екатерина Соколова-Жубер, Лиза Климова, Мария Ахметзянова, Антон Денисенко, Антонина Паперная, Сергей Гурьев, Максим Костромыкин, Екатерина Копанова, Олег Каменщиков



О фильме: Психолог Артём – сторонник «шоковой терапии» в лечении больных. Он считает, что единственный способ для человека решить свои проблемы – это понять себя и перестать себе врать. Если большинство психологов «нянчатся» с клиентами, по полгода выслушивают жалобы на жизнь, сочувствуют – и получают при этом немалые деньги за цикл сеансов — то Артем постоянно провоцирует клиентов: оскорбляет их, смеется над ними, намеренно выталкивает из зоны психологического комфорта. Практика Артема процветает, пока однажды один из его пациентов не кончает жизнь самоубийством...



Качество: WEB-DLRip

Видео: XviD build 73, 720x400 (16:9), 25.000 fps, ~ 1350 Kbps (~ 0.185 bit/pixel)

Аудио: 48.0 kHz, AC3, 2/0 ch, 192 kbps

Продолжительность: 4 x ~ 00:51:00

Перевод: Не требуется [Русский]

Cубтитры: нет



Скриншоты MediaInfoGeneral

Complete name : D:RazdachiTrigger.2018.WEB-DLRip.GeneralFilmE01.Trigger.avi

Format : AVI

Format/Info : Audio Video Interleave

File size : 557 MiB

Duration : 50 min 50 s

Overall bit rate : 1 533 kb/s

Writing application : VirtualDubMod 1.5.10.3 | www.virtualdub-fr.org || (build 2550/release)

Writing library : VirtualDubMod build 2550/release



Video

ID : 0

Format : MPEG-4 Visual

Format profile : Advanced [email protected]

Format settings : BVOP1 / Custom Matrix

Format settings, BVOP : 1

Format settings, QPel : No

Format settings, GMC : No warppoints

Format settings, Matrix : Custom

Codec ID : XVID

Codec ID/Hint : XviD

Duration : 50 min 50 s

Bit rate : 1 331 kb/s

Width : 720 pixels

Height : 400 pixels

Display aspect ratio : 16:9

Frame rate : 25.000 FPS

Color space : YUV

Chroma subsampling : 4:2:0

Bit depth : 8 bits

Scan type : Progressive

Compression mode : Lossy

Bits/(Pixel*Frame) : 0.185

Stream size : 484 MiB (87%)

Writing library : XviD 73



Audio

ID : 1

Format : AC-3

Format/Info : Audio Coding 3

Commercial name : Dolby Digital

Codec ID : 2000

Duration : 50 min 50 s

Bit rate mode : Constant

Bit rate : 192 kb/s

Channel(s) : 2 channels

Channel layout : L R

Sampling rate : 48.0 kHz

Frame rate : 31.250 FPS (1536 SPF)

Compression mode : Lossy

Stream size : 69.8 MiB (13%)

Alignment : Split across interleaves

Interleave, duration : 40 ms (1.00 video frame)

Interleave, preload duratio : 500 ms

Service kind : Complete MainВнимание! Раздача ведётся путём добавления новых серийРаздача ведётся путём добавления новых серий, при каждом добавлении создаётся новый торрент. Чтобы начать докачку новой серии, пользователям необходимо сделать следующее:



- Остановить скачивание.

- Удалить старый торрент у себя из клиента (старые серии удалять не надо).

- Скачать новый торрент и запустить его у себя в клиенте вместо старого, при этом указать клиенту путь в старую папку куда и должно происходить скачивание новых серий.



Ваш клиент при этом должен произвести хеширование (проверку) старой папки (если не производит сам - помогите ему сделать это), и будет докачивать только те серии которых у вас ещё нет. Старые серии при этом не удаляются, а продолжают раздаваться!

Если вы уже удалили старые серии, то предотвратить повторную закачку старых серий можно, отжав галочку в соответствующих местах при запуске нового торрента. По возможности, желательно не удалять старые серии как можно дольше, чтобы релизер не столько продолжал раздавать старые серии, а смог сконцентрироваться на новых.

Релиз от:

Discussion

Comments 0

Post Your Comment

Files in this torrent

FILENAMESIZE
E01.Trigger.avi557.4 MB
E02.Trigger.avi557.3 MB
E03.Trigger.avi557.4 MB
E04.Trigger.avi557.4 MB

Alternative Torrents for 'Trigger DLRip'.

TORRENT NAME ADDED SIZE SEEDS PEERS HEALTH
2/15/2020 2.2 GB 7 3
3/4/2019 745 MB 0 0
{* galaksion pop *}